<?xml version="1.0" standalone="no"?>
<!DOCTYPE svg PUBLIC "-//W3C//DTD SVG 1.1//EN" "http://www.w3.org/Graphics/SVG/1.1/DTD/svg11.dtd" >
<svg xmlns="http://www.w3.org/2000/svg">
<metadata>Generated by IcoMoon</metadata>
<defs>
<font id="ET-Bloom" horiz-adv-x="512">
<font-face units-per-em="512" ascent="480" descent="-32" />
<missing-glyph horiz-adv-x="512" />
<glyph unicode="&#x20;" d="" horiz-adv-x="256" />
<glyph unicode="&#xe600;" d="M512 224c0 40.864-23.456 80.8-64.64 110.496-4.064 39.84-20.384 80.48-53.504 104.768-40.384 29.632-94.144 25.28-137.856 5.696-42.976 19.264-95.68 23.904-135.936-4.32-34.368-24.096-51.296-65.568-55.456-106.144-35.616-25.696-64.608-64.992-64.608-110.496s29.024-84.8 64.64-110.496c4.064-39.84 20.384-80.48 53.504-104.768 40.384-29.632 94.144-25.28 137.856-5.696 42.976-19.264 95.68-23.872 135.936 4.32 34.368 24.096 51.296 65.536 55.424 106.144 41.184 29.696 64.64 69.632 64.64 110.496zM480.608 224c0-32.224-20.736-64.576-56.928-88.736l-0.032-0.032c-22.304-14.848-48.128-25.216-74.816-28.384 10.592 8.384 20.032 18.208 27.968 29.12l0.736-0.448 46.528 80.576c13.568 23.488 20.992 50.432 23.456 77.312 21.312-20.8 33.088-45.12 33.088-69.408zM175.104 138.016c-8.416 7.904-15.584 16.96-21.344 26.944v0c-20.896 36.128-20.896 81.92 0 118.048v0c20.896 36.192 60.448 59.072 102.24 59.072s81.312-22.88 102.24-59.072v0c20.896-36.128 20.896-81.92 0-118.048v0c-37.536-64.896-128.512-78.368-183.136-26.944-8.384 7.904 13.28-12.512 0 0zM325.12 429.376c91.584 0 107.36-116.832 78.752-183.52-1.984 13.344-5.76 26.4-11.232 38.72l0.736 0.416-46.56 80.608c-13.504 23.52-33.12 43.424-55.136 59.008 11.424 3.136 22.688 4.768 33.44 4.768zM143.712 418.496c56.032 32.352 132.256-8.64 167.296-55.488-17.472 6.944-36.224 10.496-55.008 10.496h-77.248c-27.104 0-54.144-7.040-78.688-18.336 7.424 28.832 22.624 51.2 43.648 63.328 12.48 7.232-21.024-12.128 0 0zM31.392 224c0 64.832 73.76 110.24 131.776 117.152-10.592-8.416-20.032-18.24-27.968-29.152l-0.768 0.448-46.528-80.608c-13.568-23.456-20.992-50.4-23.456-77.312-21.28 20.864-33.056 45.184-33.056 69.472zM186.88 18.624c-91.584 0-107.36 116.832-78.752 183.52 1.984-13.408 5.792-26.56 11.328-38.976l-0.736-0.416 46.432-80.416c13.536-23.456 33.152-43.36 55.168-58.944-11.424-3.136-22.688-4.768-33.44-4.768zM368.288 29.504c-56.064-32.352-132.256 8.672-167.296 55.488 17.472-6.944 36.224-10.496 55.008-10.496h77.248c27.104 0 54.176 7.040 78.688 18.336-7.424-28.832-22.624-51.2-43.648-63.328-12.48-7.232 21.024 12.128 0 0z" />
<glyph unicode="&#xe601;" d="M425.568 409.184c-8.736 9.088-22.912 9.088-31.68 0l-184.096-191.136-92.032 95.584c-8.736 9.088-22.944 9.088-31.68 0l-47.52-49.344c-8.736-9.088-8.736-23.808 0-32.896l155.392-161.344c8.736-9.088 22.912-9.088 31.68 0l247.456 256.896c8.736 9.088 8.736 23.808 0 32.896l-47.52 49.344z" />
<glyph unicode="&#xe602;" d="M384 383.904h-64v32c0 17.696-14.336 32-32 32h-64c-17.664 0-32-14.336-32-32v-31.968h-64c-17.664 0-32-14.336-32-32s14.336-31.936 32-31.936h256c17.664 0 32 14.24 32 31.904s-14.336 32-32 32zM128 63.904c0-16.032 14.752-31.904 32-31.904h192c16.8 0 32 13.824 32 31.904v224h-256v-224z" />
<glyph unicode="&#xe603;" d="M447.872 352c-17.664 0-31.872-14.336-31.872-32v-224h-256.128c-17.664 0-32-14.336-32-32s14.336-32 32-32h288c17.664 0 32 14.336 32 32v256c0 17.664-14.304 32-32 32zM381.312 428.352c-4.704 11.488-15.712 19.552-28.544 19.552v0l-289.792-0.16c-12.832 0-23.84-8.064-28.544-19.52-1.568-3.84-2.432-8.032-2.432-12.448v-255.84c0-4.416 0.864-8.64 2.432-12.448 4.704-11.488 15.712-19.488 28.544-19.488h289.824c12.832 0 23.84 8.096 28.544 19.584 1.568 3.84 2.432 8.032 2.432 12.448v255.872c0 4.416-0.896 8.608-2.464 12.448zM288 223.904h-160.128v128.096h160.128v-128.096z" />
<glyph unicode="&#xe604;" d="M499.232 255.488l-51.232 51.072v109.44c0 17.664-14.336 32-32 32h-64c-12.416 0-22.88-7.296-28.192-17.632l-36.992 36.896c-17.024 16.992-44.576 16.992-61.632 0l-212.416-211.776c-8.512-8.48-12.768-19.584-12.768-30.72 0-17.152 10.144-32.768 30.432-32.768 4.096 0 16.16 0 33.568 0v-190.016c0-18.976 19.008-33.984 32.992-33.984h63.36c17.472 0 31.648 14.176 31.648 31.648v128.352c0 17.664 14.336 32 32 32h64c17.664 0 32-14.336 32-32v-128.352c0-17.472 14.176-31.648 31.648-31.648h64.352c20 0 32 15.008 32 32v192c15.968 0 27.36 0 32 0 15.36 0 32 10.24 32 32 0 10.016-2.272 20.416-12.768 31.488z" />
<glyph unicode="&#xe605;" d="M272 448c-114.88 0-208-93.12-208-208s93.12-208 208-208 208 93.12 208 208-93.12 208-208 208zM147.2 240c0 68.928 55.872 124.8 124.8 124.8 16.32 0 31.808-3.328 46.080-9.024l-161.856-161.856c-5.696 14.272-9.024 29.76-9.024 46.080zM272 115.2c-16.96 0-33.056 3.456-47.808 9.568l163.040 163.040c6.112-14.752 9.568-30.88 9.568-47.808 0-68.928-55.872-124.8-124.8-124.8z" />
<glyph unicode="&#xe606;" d="M492.512 271.2l-47.424 12.416c-9.12 2.368-16.608 8.896-20.192 17.6-0.512 1.216-1.024 2.464-1.504 3.68-3.648 8.672-2.944 18.592 1.824 26.72l24.736 42.304c5.952 10.176 4.128 22.912-3.968 31.456-2.816 2.976-5.696 5.856-8.672 8.672-8.544 8.096-21.28 9.92-31.424 3.968l-42.304-24.736c-8.128-4.768-18.016-5.472-26.72-1.824-1.216 0.512-2.432 1.024-3.68 1.504-8.704 3.52-15.2 11.008-17.568 20.128l-12.416 47.424c-2.976 11.392-13.28 19.104-25.056 19.424-4.096 0.096-8.16 0.096-12.256 0-11.776-0.32-22.048-8.032-25.056-19.424l-12.384-47.424c-2.4-9.12-8.896-16.608-17.6-20.192-1.216-0.48-2.464-0.992-3.68-1.504-8.672-3.648-18.592-2.912-26.688 1.824l-42.304 24.768c-10.176 5.92-22.912 4.128-31.456-4-2.976-2.816-5.856-5.696-8.672-8.672-8.096-8.512-9.92-21.28-3.968-31.424l24.736-42.304c4.768-8.128 5.472-18.016 1.824-26.72-0.48-1.216-0.992-2.432-1.504-3.648-3.584-8.736-11.072-15.232-20.192-17.6l-47.392-12.416c-11.392-2.976-19.136-13.28-19.424-25.056-0.096-4.096-0.096-8.16 0-12.256 0.288-11.776 8.032-22.080 19.424-25.056l47.424-12.416c9.12-2.4 16.608-8.864 20.192-17.6 0.48-1.184 0.96-2.432 1.472-3.648 3.648-8.704 2.944-18.592-1.824-26.72l-24.736-42.272c-5.952-10.176-4.128-22.912 3.968-31.456 2.816-2.976 5.696-5.856 8.672-8.672 8.544-8.096 21.28-9.92 31.456-3.968l42.304 24.736c8.128 4.768 18.016 5.472 26.72 1.824 1.216-0.512 2.432-1.024 3.68-1.504 8.704-3.584 15.2-11.072 17.6-20.192l12.416-47.424c2.976-11.392 13.28-19.104 25.056-19.424 4.032-0.096 8.128-0.096 12.192 0.032 11.776 0.288 22.080 8.032 25.056 19.424l12.416 47.424c2.4 9.12 8.896 16.608 17.632 20.192 1.216 0.512 2.464 0.992 3.68 1.504 8.672 3.616 18.56 2.912 26.688-1.824l42.304-24.736c10.176-5.952 22.912-4.128 31.456 4 2.976 2.816 5.856 5.696 8.672 8.672 8.128 8.544 9.92 21.28 3.968 31.456l-24.736 42.304c-4.768 8.128-5.472 18.016-1.824 26.72 0.512 1.216 1.024 2.432 1.504 3.648 3.584 8.704 11.072 15.2 20.192 17.6l47.424 12.416c11.392 2.976 19.104 13.28 19.424 25.056 0.096 4.096 0.096 8.16 0 12.256-0.384 11.68-8.096 21.984-19.488 24.96zM272.032 160c-43.904 0-80.032 35.936-80.032 80 0 44.096 36.128 80 80.032 80s79.968-35.904 79.968-80c0-44.064-36.064-80-79.968-80z" />
<glyph unicode="&#xe607;" d="M192.128 448l-96.896-0.16c-12.832 0-23.84-8.064-28.544-19.52-1.568-3.84-2.432-8.032-2.432-12.448v-351.872c0-4.416 0.864-8.64 2.432-12.448 4.704-11.488 15.712-19.552 28.544-19.552v0h96.896c17.088 0 31.872 14.336 31.872 32v32c0 17.664-14.784 32-31.872 32h-32.128v224h32.128c17.088 0 31.872 14.336 31.872 32v32c0 17.664-14.784 32-31.872 32zM417.024 447.968v0l-96.896 0.032c-17.12 0-32-14.336-32-32v-32c0-17.664 14.88-32 32-32h32v-224h-32c-17.12 0-32-14.336-32-32v-32c0-17.664 14.88-32 32-32l96.896 0.16c12.832 0 23.84 8.064 28.544 19.52 1.568 3.84 2.432 8.032 2.432 12.448v351.872c0 4.416-0.864 8.64-2.432 12.448-4.704 11.456-15.712 19.52-28.544 19.52z" />
<glyph unicode="&#xe608;" d="M480 480h-224c-17.664 0-32-14.336-32-32v0-192c0 0 0 0 0 0-22.784 0-43.584 0-58.208 0-8.992 0-6.336-20 0-27.648l78.72-94.624c6.336-7.648 16.64-7.648 22.976 0l78.72 94.624c6.336 7.648 8.992 27.648 0 27.648-16.064 0-36.576 0-58.208 0 0 0 0 0 0 0v160h160v-384h-384v384h64c17.664 0 32 14.336 32 32v0c0 17.664-14.336 32-32 32h-96c-17.664 0-32-14.336-32-32v0 0-448c0-17.664 14.336-32 32-32v0 0h448c17.664 0 32 14.336 32 32v0 448c0 17.664-14.336 32-32 32z" />
<glyph unicode="&#xe609;" d="M248.288 354.56c8.448-9.568 11.968-34.56 0-34.56-55.136 0-175.008 0-240.576 0-11.968 0-8.448 24.992 0 34.56l104.96 118.304c8.448 9.536 22.176 9.536 30.656 0l104.96-118.304zM160 128h-64c-17.664 0-32 14.336-32 32v192c0 17.664 14.336 32 32 32h64c17.664 0 32-14.336 32-32v-192c0-17.664-14.336-32-32-32zM0 0v32c0 17.664 14.336 32 32 32h448c17.664 0 32-14.336 32-32v-32c0-17.664-14.336-32-32-32h-448c-17.664 0-32 14.336-32 32zM263.712 221.44c-8.448 9.568-11.968 34.56 0 34.56 55.136 0 175.008 0 240.576 0 11.968 0 8.448-24.992 0-34.56l-104.96-118.304c-8.448-9.536-22.176-9.536-30.656 0l-104.96 118.304zM352 448h64c17.664 0 32-14.336 32-32v-192c0-17.664-14.336-32-32-32h-64c-17.664 0-32 14.336-32 32v192c0 17.664 14.336 32 32 32z" />
<glyph unicode="&#xe60a;" d="M431.232 288h-15.232v32c0 88.352-71.648 160-160 160s-160-71.648-160-160v-32h-15.232c-26.944 0-48.768-21.824-48.768-48.768v-222.432c0-26.976 21.824-48.8 48.768-48.8h350.432c26.976 0 48.8 21.824 48.8 48.768v222.464c0 26.944-21.824 48.768-48.768 48.768zM160 320c0 52.928 43.072 96 96 96s96-43.072 96-96v-32h-192v32zM288 96c0-17.664-14.336-32-32-32s-32 14.336-32 32v80c0 17.664 14.336 32 32 32s32-14.336 32-32v-80z" />
<glyph unicode="&#xe60b;" d="M320.576 32c-8.352 0-16.672 3.2-23.040 9.568-12.736 12.768-12.736 33.44 0 46.208l135.808 136.224-135.808 136.224c-12.736 12.768-12.736 33.44 0 46.208s33.344 12.768 46.080 0l158.848-159.328c12.736-12.768 12.736-33.44 0-46.208l-158.848-159.328c-6.368-6.368-14.688-9.568-23.040-9.568zM191.424 32c8.352 0 16.672 3.2 23.040 9.568 12.736 12.768 12.736 33.44 0 46.208l-135.808 136.224 135.808 136.224c12.736 12.768 12.736 33.44 0 46.208s-33.344 12.768-46.080 0l-158.848-159.328c-12.736-12.768-12.736-33.44 0-46.208l158.848-159.328c6.368-6.368 14.688-9.568 23.040-9.568z" />
<glyph unicode="&#xe60c;" d="M448 480h-384c-35.36 0-64-28.64-64-64v-384c0-35.36 28.64-64 64-64h384c35.36 0 64 28.64 64 64v384c0 35.36-28.64 64-64 64zM416 224c0-17.664-14.336-32-32-32h-96v-96c0-17.664-14.336-32-32-32v0c-17.664 0-32 14.336-32 32v96h-96c-17.664 0-32 14.336-32 32v0c0 17.664 14.336 32 32 32h96v96c0 17.664 14.336 32 32 32v0c17.664 0 32-14.336 32-32v-96h96c17.664 0 32-14.336 32-32v0z" />
<glyph unicode="&#xe60d;" d="M437.024 133.504l-90.496 90.496 90.496 90.496c12.48 12.48 12.512 32.768 0 45.248l-45.248 45.248c-12.512 12.512-32.768 12.512-45.248 0l-90.528-90.464-90.496 90.496c-12.48 12.48-32.768 12.512-45.248 0l-45.28-45.248c-12.512-12.512-12.512-32.768 0-45.248l90.496-90.528-90.496-90.496c-12.512-12.512-12.48-32.768 0-45.248l45.248-45.248c12.512-12.512 32.768-12.512 45.248 0l90.528 90.464 90.496-90.496c12.512-12.512 32.768-12.48 45.248 0l45.248 45.248c12.512 12.512 12.512 32.768 0.032 45.28z" />
<glyph unicode="&#xe60e;" d="M504.48 303.072l-283.008-279.648c-10.016-9.888-26.24-9.888-36.224 0l-177.728 175.616c-10.016 9.888-10.016 25.92 0 35.808l54.336 53.696c10.016 9.888 26.24 9.888 36.224 0l105.28-104.032 210.56 208.064c10.016 9.888 26.24 9.888 36.224 0l54.336-53.696c10.016-9.888 10.016-25.92 0-35.808z" />
<glyph unicode="&#xe60f;" d="M136.448 480h-14.56c-67.296 0-121.888-54.592-121.888-121.888v-268.192c0-67.328 54.592-121.92 121.888-121.92h22.112c-32.544 78.688-49.376 163.744-49.376 266.528 0 93.824 14.176 172.704 41.824 245.472zM390.080 480h-170.432c-31.616-71.328-48.992-149.568-48.992-245.472 0-105.44 20.896-189.984 57.696-266.528h161.728c67.328 0 121.92 54.592 121.92 121.888v268.224c0 67.296-54.592 121.888-121.92 121.888zM326.72 4.672c-4.192-3.264-8.896-4.672-13.6-4.672-5.632 0-11.264 2.816-15.936 8.896-47.84 65.216-73.184 127.136-73.184 215.808 0 88.192 25.344 149.632 73.664 214.368 4.672 6.112 10.784 8.928 16.416 8.928 4.672 0 8.896-1.408 12.672-4.224 6.112-3.744 10.336-9.376 10.336-15.968 0-3.296-1.408-7.040-4.224-10.784-42.24-56.288-67.104-111.648-67.104-192.32 0-81.632 25.344-137.92 66.624-193.28 2.816-4.224 4.224-7.968 4.224-11.232-0.032-6.592-4.256-11.744-9.888-15.52zM397.408 86.496c2.016-3.008 3.008-5.696 3.008-8.032 0-4.704-3.008-8.384-7.040-11.072-3.008-2.336-6.368-3.328-9.728-3.328-4.032 0-8.032 2.016-11.392 6.368-34.176 46.56-52.256 90.784-52.256 154.112 0 62.976 18.080 106.88 52.608 153.12 3.36 4.352 7.712 6.368 11.744 6.368 3.36 0 6.368-0.992 9.056-3.008 4.352-2.688 7.36-6.72 7.36-11.392 0-2.336-0.992-5.024-3.008-7.712-30.144-40.224-47.904-79.744-47.904-137.376-0.032-58.304 18.048-98.528 47.552-138.048z" />
<glyph unicode="&#xe610;" d="M255.648 416c-86.144 0-200.256-70.144-250.304-169.6-7.136-14.208-7.136-30.592 0-44.768 50.048-99.456 164.16-169.6 250.304-169.6 87.168 0 203.008 71.84 252.064 173.216 5.696 11.776 5.696 25.792 0 37.568-49.056 101.344-164.896 173.184-252.064 173.184zM256 128c-53.024 0-96 42.976-96 96s42.976 96 96 96 96-42.976 96-96-42.976-96-96-96z" />
<glyph unicode="&#xe611;" d="M491.2 257.248l-50.592 13.248c-9.728 2.56-17.728 9.472-21.536 18.784-0.544 1.312-1.088 2.624-1.632 3.904-3.872 9.28-3.136 19.808 1.952 28.48l26.4 45.12c6.336 10.848 4.416 24.448-4.256 33.536-3.008 3.168-6.080 6.24-9.248 9.248-9.088 8.64-22.688 10.592-33.536 4.256l-45.12-26.4c-8.672-5.088-19.232-5.824-28.48-1.952-1.28 0.544-2.592 1.088-3.872 1.632-9.312 3.808-16.224 11.808-18.784 21.504l-13.248 50.592c-3.168 12.16-14.144 20.384-26.72 20.704-4.352 0.096-8.704 0.096-13.088 0-12.544-0.32-23.52-8.544-26.688-20.704l-13.248-50.592c-2.56-9.696-9.472-17.696-18.784-21.504-1.28-0.544-2.592-1.088-3.904-1.632-9.28-3.872-19.808-3.136-28.48 1.952l-45.12 26.4c-10.848 6.336-24.448 4.416-33.568-4.256-3.168-3.008-6.24-6.080-9.248-9.248-8.64-9.088-10.56-22.688-4.224-33.536l26.4-45.12c5.088-8.672 5.824-19.232 1.952-28.48-0.544-1.312-1.088-2.624-1.632-3.904-3.808-9.312-11.808-16.224-21.504-18.784l-50.592-13.248c-12.16-3.168-20.384-14.144-20.704-26.72-0.096-4.352-0.096-8.704 0-13.088 0.32-12.544 8.544-23.52 20.704-26.688l50.592-13.248c9.728-2.528 17.728-9.472 21.536-18.752 0.544-1.312 1.088-2.624 1.632-3.904 3.872-9.28 3.136-19.84-1.952-28.512l-26.4-45.12c-6.368-10.848-4.448-24.448 4.224-33.536 3.008-3.168 6.080-6.24 9.248-9.248 9.12-8.64 22.688-10.592 33.536-4.256l45.12 26.4c8.672 5.088 19.232 5.824 28.48 1.952 1.312-0.544 2.624-1.088 3.904-1.632 9.312-3.808 16.224-11.808 18.784-21.536l13.248-50.592c3.168-12.16 14.176-20.384 26.72-20.704 4.352-0.096 8.704-0.096 13.088 0 12.544 0.32 23.552 8.576 26.72 20.704l13.248 50.592c2.56 9.728 9.504 17.728 18.784 21.536 1.312 0.544 2.624 1.088 3.904 1.632 9.248 3.872 19.808 3.104 28.48-1.952l45.12-26.4c10.848-6.336 24.448-4.416 33.536 4.256 3.168 3.008 6.24 6.080 9.248 9.248 8.64 9.12 10.592 22.688 4.256 33.536l-26.4 45.12c-5.088 8.672-5.824 19.232-1.952 28.512 0.544 1.28 1.088 2.592 1.632 3.904 3.808 9.312 11.808 16.224 21.536 18.752l50.592 13.248c12.16 3.168 20.384 14.176 20.704 26.72 0.096 4.352 0.096 8.704 0 13.088-0.384 12.544-8.608 23.52-20.768 26.688zM256 128c-53.024 0-96 42.976-96 96s42.976 96 96 96 96-42.976 96-96-42.976-96-96-96z" />
<glyph unicode="&#xe612;" d="M512 330.272v53.728c0 17.664-14.336 32-32 32h-448c-17.664 0-32-14.336-32-32v-53.728l256-102.4 256 102.4zM256 175.584l-256 102.4v-213.984c0-17.664 14.336-32 32-32h448c17.664 0 32 14.336 32 32v214.016l-256-102.432z" />
<glyph unicode="&#xe613;" d="M457.376 312.224l-113.152 113.152 45.248 45.248c12.512 12.512 32.768 12.512 45.248 0l67.872-67.872c12.512-12.512 12.512-32.768 0-45.248l-45.216-45.28zM17.952 99.072l-17.952-131.072 131.072 17.952zM302.849 384l113.136-113.136-235.639-235.639-113.136 113.136 235.64 235.639zM204.771 388.355l-113.136-113.136-91.64 91.64 113.136 113.136 91.64-91.64zM512.015 81.142l-113.136-113.136-91.64 91.64 113.136 113.136 91.64-91.64z" />
</font>
</defs>
</svg>
